Try Our New BETA Version
GO
(navigation image)
Home Audio Books & Poetry | Community Audio | Computers & Technology | Grateful Dead | Live Music Archive | Music, Arts & Culture | Netlabels | News & Public Affairs | Non-English Audio | Podcasts | Radio Programs | Spirituality & Religion
Search: Advanced Search
Anonymous User (login or join us)
Upload

Listen to audio

item image

Stream (help[help])

VBR M3U
MP3 via M3U

Play / Download (help[help])

VBR ZIP

Ogg Vorbis

Lossless zip


All Files: HTTPS Torrent (2/0)

Resources

Bookmark

LettuceLettuce Live at Royal Family Affair At Stratton Mountain Ski Resort on 2011-08-12 (August 12, 2011)

something has gone horribly wrong 8-p
Prefer flash? · Embed · Questions/Feedback?


Collection: Lettuce
Band/Artist: Lettuce
Date: August 12, 2011 (check for other copies)
Venue: Royal Family Affair At Stratton Mountain Ski Resort
Location: Stratton Mountain, VT

Source: Schoeps MK41>KC5>CMC6>Sonosax SX-M2>Apogee Mini-me(aes out,24bit/96khz)>COAX>Edirol R-44
Lineage: SDHC Card>USB>Macbook Pro>Wave Editor(tracking,fades,resample(izotope)/dither(mbit+)to 16 bit/44.1k)>XAct(FLAC 8,ffp,fix sbe)
Taped by: Andy Murray
Transferred by: Andy Murray
Keywords: Royal Family Affair


Notes

Lettuce
2011-08-12
Royal Family Affair
Stratton, VT

Recorded and transferred by Andy Murray

Mics were 100' from stage DFC NOS

Schoeps MK41>KC5>CMC6>Sonosax SX-M2>Apogee Mini-me(aes out24bit/96khz)>COAX>Edirol R-44

SDHC Card>USB>Macbook Pro>Wave Editor(tracking,fades,resample(izotope)/dither(mbit+) to 16bit/44.1 khz)>XACT(FLAC 8,ffp,fix sbe)

Thanks to Groundhog Corey for the clampspace

2 Discs
1 Set

length expanded size cdr WAVE problems fmt ratio filename
0:54.01 9527996 B --- -- ----- lettuce2011-08-12_mk41_1644_d1t01.wav
8:42.62 92226668 B --- -- ----- lettuce2011-08-12_mk41_1644_d1t02.wav
11:58.60 126796364 B --- -- ----- lettuce2011-08-12_mk41_1644_d1t03.wav
8:19.24 88080092 B --- -- ----- lettuce2011-08-12_mk41_1644_d1t04.wav
7:49.26 82792796 B --- -- ----- lettuce2011-08-12_mk41_1644_d1t05.wav
10:26.68 110586380 B --- -- ----- lettuce2011-08-12_mk41_1644_d1t06.wav
11:46.36 124623116 B --- -- ----- lettuce2011-08-12_mk41_1644_d1t07.wav
10:04.00 106545644 B --- -- ----- lettuce2011-08-12_mk41_1644_d1t08.wav
11:21.45 120234284 B --- -- ----- lettuce2011-08-12_mk41_1644_d1t09.wav
8:47.55 93092204 B --- -- ----- lettuce2011-08-12_mk41_1644_d1t10.wav
9:21.62 99106268 B --- -- ----- lettuce2011-08-12_mk41_1644_d1t11.wav
99:32.64 1053611812 B 1.0000 (11 files)

Individual Files

Whole Item FormatSize
[generated M3U] M3U Stream 
[generated VBR MP3 ZIP] VBR MP3 ZIP Stream 
Audio Files Flac VBR MP3 Ogg Vorbis PNG
d1t01 3.5 MB 
1.2 MB 
598.9 KB 
5.8 KB 
d1t02 47.4 MB 
12.1 MB 
5.7 MB 
10.2 KB 
d1t03 66.4 MB 
16.6 MB 
7.9 MB 
10.6 KB 
d1t04 43.8 MB 
11.4 MB 
5.6 MB 
10.3 KB 
d1t05 42.5 MB 
10.7 MB 
5.2 MB 
10.7 KB 
d1t06 52.8 MB 
14.1 MB 
6.7 MB 
9.4 KB 
d1t07 63.0 MB 
16.3 MB 
7.8 MB 
10.1 KB 
d1t08 55.4 MB 
13.7 MB 
6.7 MB 
10.8 KB 
d1t09 59.5 MB 
15.7 MB 
7.6 MB 
9.2 KB 
d1t10 49.2 MB 
12.0 MB 
5.9 MB 
11.3 KB 
d1t11 49.8 MB 
13.0 MB 
6.2 MB 
10.3 KB 
Information FormatSize
lettuce2011-08-12.Schoeps_mk41_16bit.ffp Flac FingerPrint 792.0 B 
lettuce2011-08-12.Schoeps_mk41_16bit.md5 Checksums 803.0 B 
lettuce2011-08-12.Schoeps_mk41_16bit_files.xml Metadata [file] 
lettuce2011-08-12.Schoeps_mk41_16bit_meta.xml Metadata 3.5 KB 
lettuce2011-08-12.Schoeps_mk41_16bit_reviews.xml Metadata 3.1 KB 
Other Files Archive BitTorrent Text
lettuce2011-08-12.Schoeps_mk41_16bit_archive.torrent 39.2 KB 
ffp 792.0 B 
info 2.3 KB 

Write a review
Downloaded 1,362 times
Reviews
Average Rating: 4.50 out of 5 stars4.50 out of 5 stars4.50 out of 5 stars4.50 out of 5 stars4.50 out of 5 stars

Reviewer: AlPv - 5.00 out of 5 stars5.00 out of 5 stars5.00 out of 5 stars5.00 out of 5 stars5.00 out of 5 stars - August 9, 2012
Subject: Lettuce does it again!
This Rocks! It's become my go to set for showing people this GREAT band. Props to Lettuce and props to Andy for the upload.
Track #5 is called "Play" from their new album Fly.
Track #11 is called "Double Header" It's on
Soulive's "Live in NYC" album
Reviewer: RLBayers - 4.00 out of 5 stars4.00 out of 5 stars4.00 out of 5 stars4.00 out of 5 stars - August 19, 2011
Subject: one of the most subtly psychedelic funk bands out there
they keep stretching it farther and farther.
Reviewer: Lambeau828 - 5.00 out of 5 stars5.00 out of 5 stars5.00 out of 5 stars5.00 out of 5 stars5.00 out of 5 stars - August 18, 2011
Subject: A+
Hell yeah! Props to the band for such a sick set. Props to the taper for the incredible sounding pull. I salute you and your skills! This is a must get if you're down w/ Lettuce. Or ...just down w/ amazing, tight, funky, mind blowing, body groovin' music.

This is great! Thanks again. The band seems to get better each time they play! Long live Lettuce!

***Knowing nothing of this event it would be nice if we could get a proper 'review' not nec on the music, that speaks for itself, but the experience. Please tell us about it.

On the music tip, Does Benevento &/or Skerik sit in track 7 'Mr. Yancey'? Sounds like it to me then it sounds like Medeski for a hot minute later on but that's prob in my mind or perhaps some of those guys gear was set up already & used? lol. I wonder these things. Just disecting it audibly is great w/ these cats. Almost all the songs have new arrangements on parts particularly the intros. This really is some amazing music.
Reviewer: rhcp4115 - 4.00 out of 5 stars4.00 out of 5 stars4.00 out of 5 stars4.00 out of 5 stars - August 15, 2011
Subject: GREAT SHOW
Fantastic show and great recording. Thanks for putting it. I hope you have more recordings from this weekend because it was epic. (looking forward to Medeski, Deitch, Skerik if you have it)

Anyways, here is the Setlist from what I could figure out from other lettuce recordins. 2 songs I'm not sure about so if anyone knows please post it! They could be from the rumored upcoming lettuce album.

Track
1. Intro
2. Blast Off
3. By Any Schmeeans Necessary
4. Last Suppit
5. "New Song 1"
6. Break Out -> Relax
7. Mr. Yancey
8. Sam Huff's Flying Raging Machine
9. Squadlive
10. "Counting Jam"
11. "New Song 2"

The ones in quotes are new songs or Jams with no names that I am aware of. Feel free to correct me.

Enjoi!

Terms of Use (31 Dec 2014)